Torrent Details

Photo Not Available
Peppermint 2018 HQ CAM X264 MP3 English-RypS [MOVCR]
Size4.7 GB in 0 files
ReleasesAdded Today at 18:29 into the Movies category by Unknown.
Status0 seeds & 0 peers.
Hash30555e26cd7fc2f914b951c7a969875fc0c2a9c8
Rating
  • YourBT Visitors

Status This torrent has been verified.
*

Torrent Description

ORiGiNAL TiTLE: ~ Peppermint ~

MOViE YEAR: 07 September 2018 (USA)
GENRE: Action | Drama | Thriller
PLAY TiME: 96 min / 01h:36min:26sec
iMDB: http://www.imdb.com/title/tt6850820/
ViDEO: http://www.youtube.com/watch?v=ttlNoAvHiKs
SOURCE: CAM
AUDiO: English

NOTeS: (CROP COMERCIAL)


Video

Format : AVC
Format/Info : Advanced Video Codec
Format profile : [email protected]
Format settings : CABAC / 2 Ref Frames
Format settings, CABAC : Yes
Format settings, ReFrames : 2 frames
Format settings, GOP : M=3, N=30
Codec ID : V_MPEG4/ISO/AVC
Duration : 1 h 36 min
Bit rate : 750 kb/s
Width : 720 pixels
Height : 246 pixels
Display aspect ratio : 2.927
Frame rate mode : Constant
Frame rate : 29.970 (30000/1001) FPS
Color space : YUV
Chroma subsampling : 4:2:0
Bit depth : 8 bits
Scan type : Progressive
Bits/(Pixel*Frame) : 0.141
Stream size : 517 MiB (87%)
Default : Yes
Forced : No

Audio

Format : MPEG Audio
Format version : Version 1
Format profile : Layer 3
Format settings : Joint stereo / MS Stereo
Codec ID : A_MPEG/L3
Codec ID/Hint : MP3
Duration : 1 h 36 min
Bit rate mode : Constant
Bit rate : 96.0 kb/s
Channel(s) : 2 channels
Sampling rate : 44.1 kHz
Compression mode : Lossy
Stream size : 66.2 MiB (11%)
Writing library : LAME3.98.2
Default : Yes
Forced : No



Similar Torrents

No Similar Torrents Found

If we find similar torrents, we normally show them right here. We couldn't find anything for "".

Torrent Trackers

Files inside this torrent