Torrent Details

Photo Not Available
White Boy Rick 2018 720p TS x264 [MW]
Size7.5 GB in 0 files
ReleasesAdded Today at 15:33 into the Movies category by Unknown.
Status0 seeds & 0 peers.
Hashd6e5dffbd03d14b7d9c313725786da69fb696f8e
Rating
  • YourBT Visitors

Status This torrent has been verified.
*

Torrent Description







General

Format                                   : Matroska

Format version                           : Version 4 / Version 2

File size                                : 1.21 GiB

Duration                                 : 1 h 47 min

Overall bit rate                         : 1 617 kb/s



Video

ID                                       : 1

Format                                   : AVC

Format/Info                              : Advanced Video Codec

Format profile                           : [email protected]

Format settings                          : CABAC / 4 Ref Frames

Format settings, CABAC                   : Yes

Format settings, RefFrames               : 4 frames

Codec ID                                 : V_MPEG4/ISO/AVC

Duration                                 : 1 h 47 min

Bit rate                                 : 1 400 kb/s

Width                                    : 1 280 pixels

Height                                   : 508 pixels

Display aspect ratio                     : 2.520

Frame rate mode                          : Constant

Frame rate                               : 29.970 (30000/1001) FPS

Color space                              : YUV

Chroma subsampling                       : 4:2:0

Bit depth                                : 8 bits

Scan type                                : Progressive

Bits/(Pixel*Frame)                       : 0.072

Stream size                              : 1.04 GiB (86%)

Writing library                          : x264 core 155 r2901 7d0ff22

Default                                  : Yes

Forced                                   : No



Audio

ID                                       : 2

Format                                   : AAC

Format/Info                              : Advanced Audio Codec

Format profile                           : LC

Codec ID                                 : A_AAC-2

Duration                                 : 1 h 47 min

Bit rate                                 : 224 kb/s

Channel(s)                               : 2 channels

Channel positions                        : Front: L R

Sampling rate                            : 48.0 kHz

Frame rate                               : 46.875 FPS (1024 SPF)

Compression mode                         : Lossy

Stream size                              : 172 MiB (14%)

Language                                 : English

Default                                  : Yes

Forced                                   : No





http://pichub.site/image/E7dV6

http://pichub.site/image/E77Ut

http://pichub.site/image/E7V94

http://pichub.site/image/E7kRp

http://pichub.site/image/E7wKy

http://pichub.site/image/E7hJ0



Similar Torrents

No Similar Torrents Found

If we find similar torrents, we normally show them right here. We couldn't find anything for "".

Torrent Trackers

TRACKER URLSEEDSPEERS
Onlineudp://tracker.coppersurfer.tk:6969/announce4143
Onlineudp://tracker.open-internet.nl:6969/announce1724

Files inside this torrent