Torrent Details

Photo Not Available
White Boy Rick 2018 720p TS With Sample
Size1.2 GB in 2 files
ReleasesAdded Today at 8:54 into the Movies category by Unknown.
Status0 seeds & 0 peers.
Hash98cd09aa61af6dcb051bbf8c3c7a3bd7f3bf9ecf
Rating
  • YourBT Visitors

Status This torrent has been verified.
*

Torrent Description

******************************Thumbnail:**********************







******************************Screenshots:********************



Screenshot 1



Screenshot 2



Screenshot 3



Screenshot 4



Screenshot 5



Screenshot 6



Screenshot 7



Screenshot 8



Screenshot 9



Screenshot 0





************************************************************



White Boy Rick 2018 720p.TS.With.Sample.LLG.mp4

Format                                   : MPEG-4

Format profile                           : Base Media

Codec ID                                 : isom (isom/iso2/avc1/mp41)

File size                                : 1.22 GiB

Duration                                 : 1 h 47 min

Overall bit rate                         : 1 627 kb/s



Video

ID                                       : 1

Format                                   : AVC

Format/Info                              : Advanced Video Codec

Format profile                           : [email protected]

Format settings                          : CABAC / 4 Ref Frames

Format settings, CABAC                   : Yes

Format settings, RefFrames               : 4 frames

Codec ID                                 : avc1

Codec ID/Info                            : Advanced Video Coding

Duration                                 : 1 h 47 min

Bit rate                                 : 1 500 kb/s

Width                                    : 1 280 pixels

Height                                   : 510 pixels

Display aspect ratio                     : 2.510

Frame rate mode                          : Constant

Frame rate                               : 29.970 (29970/1000) FPS

Color space                              : YUV

Chroma subsampling                       : 4:2:0

Bit depth                                : 8 bits

Scan type                                : Progressive

Bits/(Pixel*Frame)                       : 0.077

Stream size                              : 1.12 GiB (92%)





Audio

ID                                       : 2

Format                                   : AC-3

Format/Info                              : Audio Coding 3

Commercial name                          : Dolby Digital

Codec ID                                 : ac-3

Duration                                 : 1 h 47 min

Bit rate mode                            : Constant

Bit rate                                 : 128 kb/s

Channel(s)                               : 2 channels

Channel layout                           : L R

Sampling rate                            : 48.0 kHz

Frame rate                               : 31.250 FPS (1536 SPF)

Bit depth                                : 16 bits

Compression mode                         : Lossy

Stream size                              : 98.3 MiB (8%)

Service kind                             : Complete Main







********************************************************



Similar Torrents

No Similar Torrents Found

If we find similar torrents, we normally show them right here. We couldn't find anything for "".

Torrent Trackers

TRACKER URLSEEDSPEERS
Onlineudp://tracker.coppersurfer.tk:6969/announce02

Files inside this torrent

FILENAMESIZE
icon SAMPLE.mkv22.6 MB
icon White Boy Rick 2018 720p.TS.With.Sample.LLG.mp41.2 GB