Torrent Details

Deadpool 2 2018 Super Duper Cut BRRip XviD B4ND1T69
Deadpool 2 2018 Super Duper Cut BRRip XviD B4ND1T69
Size1.6 GB in 5 files
ReleasesAdded on 02.10.2018 at 21:52 into the Movies category by Unknown.
Status24 seeds & 8 peers.
Hash27a30885d68fe0ef9d1f89196a506e6f92eec968
Rating
  • YourBT Visitors

Status This torrent has been verified.
*

Torrent Description

Deadpool.2.2018.Super.Duper.Cut.BRRip.XviD.B4ND1T69



Director: David Leitch
Writers: Rhett Reese, Paul Wernick
Stars: Ryan Reynolds, Josh Brolin, Morena Baccarin

Plot/Story:
After losing the love of his life, 4th wall-breaking mercenary Wade Wilson aka Deadpool (Ryan Reynolds) must protect Russel (Julian Dennison) must assemble a team of mutants and protect Russel from Cable (Josh Brolin), a no-nonsense, dangerous cyborg from the future and Deadpool must learn the most important lesson of all, to be part of a family again.

General
Complete name : Deadpool.2.2018.Super.Duper.Cut.BRRip.XviD.B4ND1T69.avi
Format : AVI
Format/Info : Audio Video Interleave
File size : 1.57 GiB
Duration : 2 h 13 min
Overall bit rate : 1 677 kb/s
Subtitles : Yes, Hardcoded for Non-English parts + file included(HI)

Video
ID : 0
Format : MPEG-4 Visual
Format profile : Advanced [email protected]
Format settings, BVOP : 2
Format settings, QPel : No
Format settings, GMC : No warppoints
Format settings, Matrix : Default (H.263)
Codec ID : XVID
Codec ID/Hint : XviD
Duration : 2 h 13 min
Bit rate : 1 536 kb/s
Width : 720 pixels
Height : 304 pixels
Display aspect ratio : 2.35:1
Frame rate : 23.976 (24000/1001) FPS
Color space : YUV
Chroma subsampling : 4:2:0
Bit depth : 8 bits
Scan type : Progressive
Compression mode : Lossy
Bits/(Pixel*Frame) : 0.293
Stream size : 1.44 GiB (92%)
Writing library : XviD 64

Audio
ID : 1
Format : MPEG Audio
Format version : Version 1
Format profile : Layer 3
Codec ID : 55
Codec ID/Hint : MP3
Duration : 2 h 13 min
Bit rate mode : Constant
Bit rate : 128 kb/s
Channel(s) : 2 channels
Sampling rate : 48.0 kHz
Compression mode : Lossy
Stream size : 123 MiB (8%)
Alignment : Aligned on interleaves
Interleave, duration : 24 ms (0.58 video frame)

Screenshots:









Please Seed For As Long As Possible
Or At Least 1:1 Ratio...Thanks
Enjoy Peeps



Similar Torrents

No Similar Torrents Found

If we find similar torrents, we normally show them right here. We couldn't find anything for "".

Torrent Trackers

TRACKER URLSEEDSPEERS
Onlineudp://tracker.coppersurfer.tk:6969/announce248
Onlineudp://tracker.pirateparty.gr:6969/announce216
Onlineudp://tracker.opentrackr.org:1337/announce155
Onlineudp://tracker.zer0day.to:1337/announce44
Onlineudp://mgtracker.org:6969/announce00
Onlineudp://tracker.open-internet.nl:6969/announce00

Files inside this torrent

FILENAMESIZE
icon 1337x text file.txt61 B
icon Deadpool.2.2018.Super.Duper.Cut.BRRip.XviD.B4ND1T69.avi1.6 GB
icon Deadpool.2.2018.Super.Duper.Cut.BRRip.XviD.B4ND1T69.srt163.7 KB
icon Downloaded from katcr.co.txt139 B
icon Seeded by Seedplease SeedBoxes.txt198 B