Torrent Details

[MovCr cc] - 1971 Beyond Borders (2018) 720p - UnCut - HDRip - x264 - [Hindi + Telugu + Malayalam] - 1 4GB - MovC<font color=#ccc>r</font>
[MovCr cc] - 1971 Beyond Borders (2018) 720p - UnCut - HDRip - x264 - [Hindi + Telugu + Malayalam] - 1 4GB - MovCr
Size1.4 GB in 1 file
ReleasesAdded on 03.10.2018 at 23:57 into the Movies category by Unknown.
Status22 seeds & 6 peers.
Hashf20c594ab93c77a14d981e3ef7fb6d100fe92831
Rating
  • YourBT Visitors

Status This torrent has been verified.
*

Torrent Description

http://movcr.cc

1971 Beyond Borders (2018) 720p - UnCut - HDRip - x264 - [Hindi + Telugu + Malayalam] - 1.4GB - MovCr
NO WATERMARK & AUDIO TAGS


Video
ID : 1
Format : AVC
Format/Info : Advanced Video Codec
Format profile : [email protected]
Format settings : CABAC / 4 Ref Frames
Format settings, CABAC : Yes
Format settings, RefFrames : 4 frames
Codec ID : V_MPEG4/ISO/AVC
Duration : 2 h 14 min
Bit rate : 1 133 kb/s
Width : 1 280 pixels
Height : 544 pixels
Display aspect ratio : 2.35:1
Frame rate mode : Constant
Frame rate : 25.000 FPS
Color space : YUV
Chroma subsampling : 4:2:0
Bit depth : 8 bits
Scan type : Progressive
Bits/(Pixel*Frame) : 0.065
Stream size : 1.06 GiB (75%)
Title : www.MovCr.cc
Writing library : x264 core 155 r2901 7d0ff22
Encoding settings : cabac=1 / ref=1 / deblock=1:0:0 / analyse=0x3:0x113 / me=hex / subme=2 / psy=1 / psy_rd=1.00:0.00 / mixed_ref=0 / me_range=16 / chroma_me=1 / trellis=0 / 8x8dct=1 / cqm=0 / deadzone=21,11 / fast_pskip=1 / chroma_qp_offset=0 / threads=12 / lookahead_threads=4 / sliced_threads=0 / nr=0 / decimate=1 / interlaced=0 / bluray_compat=0 / constrained_intra=0 / bframes=3 / b_pyramid=2 / b_adapt=1 / b_bias=0 / direct=1 / weightb=1 / open_gop=0 / weightp=1 / keyint=250 / keyint_min=25 / scenecut=40 / intra_refresh=0 / rc_lookahead=10 / rc=abr / mbtree=1 / bitrate=1133 / ratetol=1.0 / qcomp=0.60 / qpmin=0 / qpmax=69 / qpstep=4 / vbv_maxrate=62500 / vbv_bufsize=78125 / nal_hrd=none / filler=0 / ip_ratio=1.40 / aq=1:1.00
Default : Yes
Forced : No
Color range : Limited
Color primaries : BT.709
Transfer characteristics : BT.709
Matrix coefficients : BT.709

Audio #1
ID : 2
Format : MPEG Audio
Format version : Version 1
Format profile : Layer 3
Format settings : Joint stereo / MS Stereo
Codec ID : A_MPEG/L3
Codec ID/Hint : MP3
Duration : 2 h 14 min
Bit rate mode : Constant
Bit rate : 128 kb/s
Channel(s) : 2 channels
Sampling rate : 44.1 kHz
Frame rate : 38.281 FPS (1152 SPF)
Compression mode : Lossy
Delay relative to video : -23 ms
Stream size : 123 MiB (8%)
Title : www.MovCr.cc
Language : Hindi
Default : Yes
Forced : No

Audio #2
ID : 3
Format : MPEG Audio
Format version : Version 1
Format profile : Layer 3
Format settings : Joint stereo / MS Stereo
Codec ID : A_MPEG/L3
Codec ID/Hint : MP3
Duration : 2 h 14 min
Bit rate mode : Constant
Bit rate : 128 kb/s
Channel(s) : 2 channels
Sampling rate : 44.1 kHz
Frame rate : 38.281 FPS (1152 SPF)
Compression mode : Lossy
Delay relative to video : -23 ms
Stream size : 123 MiB (8%)
Title : www.MovCr.cc
Language : Telugu
Default : No
Forced : No

Audio #3
ID : 4
Format : AAC LC
Format/Info : Advanced Audio Codec Low Complexity
Codec ID : A_AAC-2
Duration : 2 h 14 min
Bit rate : 127 kb/s
Channel(s) : 2 channels
Channel layout : L R
Sampling rate : 44.1 kHz
Frame rate : 43.066 FPS (1024 SPF)
Compression mode : Lossy
Delay relative to video : -23 ms
Stream size : 122 MiB (8%)
Title : www.MovCr.cc
Language : Malayalam
Default : No
Forced : No







Similar Torrents

No Similar Torrents Found

If we find similar torrents, we normally show them right here. We couldn't find anything for "".

Torrent Trackers

TRACKER URLSEEDSPEERS
Onlineudp://mgtracker.org:6969/announce222
Onlineudp://tracker.pirateparty.gr:6969/announce226
Onlineudp://tracker.coppersurfer.tk:6969/announce204
Onlineudp://tracker.opentrackr.org:1337/announce113
Onlineudp://tracker.zer0day.to:1337/announce20
Onlineudp://tracker.open-internet.nl:6969/announce00

Files inside this torrent

FILENAMESIZE
icon [MovCr.cc] - 1971 Beyond Borders (2018) 720p - UnCut - HDRip - x264 - [Hindi + Telugu + Malayalam] - 1.4GB - MovCr.mkv1.4 GB